Vote For Us !
Topliste | volno.org - Topliste | LinkR.top - Dein Linkverzeichnis für den Underground! | | | Cyonix! |


Latest Topics: --- ACDSee Photo Studio Professional 2021 14 Build 2431 --- Dr. Explain Ultima 6.1.1191 (x64) Multilingual --- Reallusion Cartoon Animator 4.3.2110.1 Pipeline --- Windows 10 LITE x64 Version 1703 Build 15063.2500 (Gaming Edition) --- Windows 10 Pro Education 20H1 2004.19041.508 (x86/x64) Multilanguage Preactivated Sep --- Bosch ESI[tronic] v2.0 2020.3 Multilingual --- Advanced System Repair Pro 1.9.3.4 --- iTubeGo YouTube Downloader 4.1.1 Multilingual --- Topaz DeNoise AI 2.2.12 (x64) --- QuarkXPress 2020 v16.1 Multilingual ---

Categories
Applications & Games
Music Audio & Video
Ebooks ,Tutorials & Scripts

Friends
WarezForums.com
Best of Links!
8ebooks.net

Latest Threads
ACDSee Photo Studio Professional 2021 14 Build 2431
Last Post: M.D.
Today 12:48 PM
» Replies: 0
» Views: 9
Dr. Explain Ultima 6.1.1191 (x64) Multilingual
Last Post: M.D.
Today 12:44 PM
» Replies: 0
» Views: 9
Reallusion Cartoon Animator 4.3.2110.1 Pipeline
Last Post: M.D.
Today 12:37 PM
» Replies: 0
» Views: 8
Windows 10 LITE x64 Version 1703 Build 15063.2500 (Gaming Edition)
Last Post: M.D.
Today 12:32 PM
» Replies: 0
» Views: 7
Windows 10 Pro Education 20H1 2004.19041.508 (x86/x64) Multilanguage Preactivate...
Last Post: KAMAL
Yesterday 07:18 PM
» Replies: 0
» Views: 13
Bosch ESI[tronic] v2.0 2020.3 Multilingual
Last Post: KAMAL
Yesterday 07:16 PM
» Replies: 0
» Views: 12
English Comics and Manga Collection
Last Post: strip
Yesterday 06:58 PM
» Replies: 21
» Views: 2593
Advanced System Repair Pro 1.9.3.4
Last Post: M.D.
Yesterday 03:54 PM
» Replies: 0
» Views: 22
iTubeGo YouTube Downloader 4.1.1 Multilingual
Last Post: M.D.
Yesterday 03:49 PM
» Replies: 0
» Views: 17
Topaz DeNoise AI 2.2.12 (x64)
Last Post: M.D.
Yesterday 07:38 AM
» Replies: 0
» Views: 19

James Taylor - Walking Man (1974) (2019 Remaster)
#1
James Taylor - Walking Man (1974) (2019 Remaster)

[Image: jt-wm.jpg]

Quality-Lossless
Release-1974
Duration-00:33:57
File Size-699 MB
Genre-Pop
Cover Size-1400px

----------------------------------------------------------------------------------------------
Analyzed: Walking Man (2019 Remaster) / Artist: James Taylor
----------------------------------------------------------------------------------------------
DR Peak RMS Duration Title [codec]
----------------------------------------------------------------------------------------------
DR14 -0.94 dB -18.94 dB 3:33 01 - Walking Man (2019 Remaster) [flac]
DR12 -0.54 dB -16.06 dB 3:27 02 - Rock 'n' Roll Is Music Now (2019 Remaster) [flac]
DR13 -0.00 dB -15.41 dB 3:33 03 - Let It All Fall Down (2019 Remaster) [flac]
DR13 -0.00 dB -16.40 dB 3:33 04 - Me and My Guitar (2019 Remaster) [flac]
DR12 -6.60 dB -21.83 dB 2:37 05 - Daddy's Baby (2019 Remaster) [flac]
DR13 -0.00 dB -16.74 dB 3:29 06 - Ain't No Song (2019 Remaster) [flac]
DR13 -0.00 dB -17.39 dB 2:48 07 - Hello Old Friend (2019 Remaster) [flac]
DR11 -1.89 dB -17.07 dB 3:16 08 - Migration (2019 Remaster) [flac]
DR11 -0.00 dB -14.25 dB 4:03 09 - The Promised Land (2019 Remaster) [flac]
DR12 -1.35 dB -17.54 dB 3:33 10 - Fading Away (2019 Remaster) [flac]
----------------------------------------------------------------------------------------------
Number of files: 10
Official DR value: DR12

Sampling rate: 96000 Hz
Average bitrate: 2724kbs
Bits per sample: 24 bit

James_Taylor_-_Walking_Man__2019_Remaster___1974_.rar

Download Link:
[Image: button-dark.png]


Attached Files
.torrent   James Taylor - Walking Man (2019 Remaster) (1974).torrent (Size: 28.8 KB / Downloads: 15)
#2
The post is moved to the junk.
Reason: dead links.
If you have fresh links please use report or send me pm to revive the post.
#3
The post is moved to the junk.
Reason: dead links.
If you have fresh links please use report or send me pm to revive the post.

Create an account or sign in to comment
You need to be a member in order to leave a comment
Create an account
Sign up for a new account in our community. It's easy!
or
Sign in
Already have an account? Sign in here.


Crack, Serial, Keygen, Warez Downloads crawli download suchmaschine
WarezWorm| DDLSite Download| WarezKeeper